#TITLE:Canon;
#SUBTITLE:Dead Master;
#ARTIST:Dr. Flowershirts;
#TITLETRANSLIT:;
#SUBTITLETRANSLIT:;
#ARTISTTRANSLIT:;
#CREDIT:;
#BANNER:bn.jpg;
#BACKGROUND:bg.jpg;
#LYRICSPATH:;
#CDTITLE:cdtitle.png;
#MUSIC:Dr._Flowershirts_-_Canon_(O2_Version).mp3;
#OFFSET:-0.100;
#SAMPLESTART:48.989;
#SAMPLELENGTH:25.926;
#SELECTABLE:YES;
#BPMS:0.000=162.003,2.000=161.993,3.000=162.003,5.000=161.993,6.000=162.003,8.000=161.993,9.000=162.003,11.000=161.993,12.000=162.003,15.000=161.993,16.000=162.003,17.000=161.993,18.000=162.003,20.000=161.993,21.000=162.003,23.000=161.993,24.000=162.003,26.000=161.993,27.000=162.003,30.000=161.993,31.000=162.003,32.000=161.993,33.000=162.003,35.000=161.993,36.000=162.003,38.000=161.993,39.000=162.003,41.000=161.993,42.000=162.003,44.000=161.993,45.000=162.003,47.000=161.993,48.000=162.003,50.000=161.993,51.000=162.003,53.000=161.993,54.000=162.003,56.000=161.993,57.000=162.003,60.000=161.993,61.000=162.003,63.000=161.993,64.000=162.003,65.000=161.993,66.000=162.003,68.000=161.993,69.000=162.003,71.000=161.993,72.000=162.003,74.000=161.993,75.000=162.003,77.000=161.993,78.000=162.003,80.000=161.993,81.000=162.003,83.000=161.993,84.000=162.003,86.000=161.993,87.000=162.003,89.000=161.993,90.000=162.003,92.000=161.993,93.000=162.003,95.000=161.993,96.000=162.003,98.000=161.993,99.000=162.003,101.000=161.993,102.000=162.003,104.000=161.993,105.000=162.003,107.000=161.993,108.000=162.003,110.000=161.993,111.000=162.003,113.000=161.993,114.000=162.003,117.000=161.993,118.000=162.003,120.000=161.993,121.000=162.003,123.000=161.993,124.000=162.003,126.000=161.993,127.000=162.003,128.000=161.993,129.000=162.003,131.000=161.993,132.000=162.003,134.000=161.993,135.000=162.003,137.000=161.993,138.000=162.003,140.000=161.993,141.000=162.003,143.000=161.993,144.000=162.003,146.000=161.993,147.000=162.003,149.000=161.993,150.000=162.003,152.000=161.993,153.000=162.003,155.000=161.993,156.000=162.003,158.000=161.993,159.000=162.003,161.000=161.993,162.000=162.003,164.000=161.993,165.000=162.003,167.000=161.993,168.000=162.003,170.000=161.993,171.000=162.003,173.000=161.993,174.000=162.003,176.000=161.993,177.000=162.003,179.000=161.993,180.000=162.003,182.000=161.993,183.000=162.003,185.000=161.993,186.000=162.003,188.000=161.993,189.000=162.003,191.000=161.993,192.000=162.003,194.000=161.993,195.000=162.003,197.000=161.993,198.000=162.003,200.000=161.993,201.000=162.003,203.000=161.993,204.000=162.003,206.000=161.993,207.000=162.003,209.000=161.993,210.000=162.003,212.000=161.993,213.000=162.003,215.000=161.993,216.000=162.003,218.000=161.993,219.000=162.003,221.000=161.993,222.000=162.003,224.000=161.993,225.000=162.003,227.000=161.993,228.000=162.003,230.000=161.993,231.000=162.003,234.000=161.993,235.000=162.003,237.000=161.993,238.000=162.003,240.000=161.993,241.000=162.003,243.000=161.993,244.000=162.003,246.000=161.993,247.000=162.003,249.000=161.993,250.000=162.003,252.000=161.993,253.000=162.003,255.000=161.993,256.000=162.003,257.000=161.993,258.000=162.003,260.000=161.993,261.000=162.003,263.000=161.993,264.000=162.003,266.000=161.993,267.000=162.003,269.000=161.993,270.000=162.003,272.000=161.993,273.000=162.003,275.000=161.993,276.000=162.003,278.000=161.993,279.000=162.003,281.000=161.993,282.000=162.003,284.000=161.993,285.000=162.003,287.000=161.993,288.000=162.003,290.000=161.993,291.000=162.003,293.000=161.993,294.000=162.003,296.000=161.993,297.000=162.003,299.000=161.993,300.000=162.003,302.000=161.993,303.000=162.003,305.000=161.993,306.000=162.003,308.000=161.993,309.000=162.003,311.000=161.993,312.000=162.003,314.000=161.993,315.000=162.003,317.000=161.993,318.000=162.003,320.000=161.993,321.000=162.003,323.000=161.993,324.000=162.003,326.000=161.993,327.000=162.003,329.000=161.993,330.000=162.003,332.000=161.993,333.000=162.003,335.000=161.993,336.000=162.003,338.000=161.993,339.000=162.003,341.000=161.993,342.000=162.003,344.000=161.993,345.000=162.003,347.000=161.993,348.000=162.003,350.000=161.993,351.000=162.003,353.000=161.993,354.000=162.003,356.000=161.993,357.000=162.003,359.000=161.993,360.000=162.003,362.000=161.993,363.000=162.003,365.000=161.993,366.000=162.003,368.000=161.993,369.000=162.003,371.000=161.993,372.000=162.003,374.000=161.993,375.000=162.003,377.000=161.993,378.000=162.003,380.000=161.993,381.000=162.003,383.000=161.993,384.000=162.003,386.000=161.993,387.000=162.003,389.000=161.993,390.000=162.003,392.000=161.993,393.000=162.003,395.000=161.993,396.000=162.003,398.000=161.993,399.000=162.003,401.000=161.993,402.000=162.003,404.000=161.993,405.000=162.003,407.000=161.993,408.000=162.003,410.000=161.993,411.000=162.003,413.000=161.993,414.000=162.003,416.000=161.993,417.000=162.003,419.000=161.993,420.000=162.003,422.000=161.993,423.000=162.003,425.000=161.993,426.000=162.003,428.000=161.993,429.000=162.003,431.000=161.993,432.000=162.003,434.000=161.993,435.000=162.003,437.000=161.993,438.000=162.003,440.000=161.993,441.000=162.003,443.000=161.993,444.000=162.003,446.000=161.993,447.000=162.003,449.000=161.993,450.000=162.003,452.000=161.993,453.000=162.003,455.000=161.993,456.000=162.003,458.000=161.993,459.000=162.003,461.000=161.993,462.000=162.003,464.000=161.993,465.000=162.003;
#STOPS:;
#BGCHANGES:0.000=Dr._Flowershirts_-_Canon_(O2_Version).avi=1.000=1=1=0,
464.000=bg.png=1.000=0=0=1,
99999=-nosongbg-=1.000=0=0=0 // don't automatically add -songbackground-
;
// cache tags:
#FIRSTBEAT:0.000;
#LASTBEAT:464.000;
#SONGFILENAME:Songs/Super Dancer Online/Canon/Dr._Flowershirts_-_Canon_(O2_Version).sm;
#HASMUSIC:1;
#HASBANNER:1;
#MUSICLENGTH:172.990;
// end cache tags

//---------------dance-single - ----------------
#NOTES:
     dance-single:
     :
     Hard:
     20:
     0.940,1.000,1.000,0.399,0.237,873.000,196.000,69.000,0.000,59.000:
0010
0000
1000
0100
0001
0000
1000
0010
,
0001
0100
0010
1000
0100
0001
0010
0100
,
0001
0000
1000
0010
0001
0000
0100
1000
,
0001
0000
0100
0000
0010
0000
0100
0000
0001
0000
1000
0000
0010
0100
0010
0100
,
1000
0001
0100
1000
0010
0100
0001
1000
,
0010
1000
0100
0001
0010
1000
0100
0001
,
1000
0010
0100
0001
0010
0001
0100
1000
,
0010
0001
0100
0010
0100
1000
0010
0001
0010
0100
1000
0010
0100
0010
0001
1000
,
0110
0000
1000
0100
0001
1010
0100
0010
,
0101
0010
0100
1000
0100
0011
0100
0010
,
1100
0000
0100
0010
1000
0101
0010
1000
,
0110
0001
1000
0010
0100
0011
1000
0100
,
1010
0001
0100
0010
0100
1010
0001
0010
,
1100
0010
0100
0001
0100
1010
0001
0010
,
0101
1000
0010
0100
1000
0011
0100
1000
,
0101
1000
0010
0100
1000
0010
0100
0001
0010
0100
1000
0010
0001
0100
0010
1000
,
0101
0010
1100
0001
0110
1000
0101
0010
,
1100
0001
1010
0100
0011
1000
0101
0010
,
1001
0100
0011
1000
0110
0001
1010
0100
,
1010
0001
0110
1000
0011
0100
1010
0001
,
0110
1000
0101
0010
1001
0100
1010
0001
,
1100
0010
1001
0100
0011
1000
0101
0010
,
0101
1000
0011
0100
1001
0010
0101
1000
,
0011
0100
1010
0001
1100
0010
0101
1000
,
0110
0001
1100
0010
1001
0100
1010
0001
,
1010
0100
1001
0010
1100
0001
1010
0100
,
1001
0010
0101
1000
0110
0001
1010
0100
,
0011
1000
0110
0001
1100
0010
1001
0100
,
1010
0100
1001
0010
1100
0001
1010
0100
,
1001
0010
0101
1000
0110
0001
1010
0100
,
0011
1000
0110
0001
1100
0010
0101
1000
,
0110
1000
0001
0010
0101
1000
0010
0001
,
1100
0010
1001
0100
0011
1000
0100
0010
,
1000
0000
0010
0100
0001
0000
0010
0100
,
0001
1000
0100
0010
1000
0100
0001
0010
,
1000
0000
0100
0001
1000
0000
0010
0001
,
1000
0100
0010
0100
0001
0010
1000
0100
,
0001
0000
0010
0100
0001
0000
1000
0100
,
0001
0100
0010
1000
0001
0010
1000
0100
,
0001
0000
0010
0100
0010
0000
1000
0100
,
0010
0100
0001
1000
0010
0100
0001
1000
,
0010
0000
1000
0100
0001
0000
0010
0100
,
1000
0001
0100
0010
1000
0100
0001
0010
,
1000
0000
0100
0001
1000
0000
0010
0100
,
0001
0010
1000
0100
0010
0100
0001
1000
,
0100
0000
0010
0100
0001
0000
1000
0100
,
0001
0010
1000
0100
0001
0010
1000
0100
,
0001
0010
1000
0100
0010
0001
0100
0010
1000
0100
0001
0010
0001
1000
0100
0010
,
1000
0001
0100
0010
1000
0001
0100
0010
0001
1000
0100
0010
1000
0001
0100
0010
,
2000
0001
0010
0100
3010
0001
0100
1000
,
0020
0100
0001
1000
0130
0001
1000
0010
,
0200
0001
1000
0010
0301
1000
0010
0100
,
0002
0010
1000
0100
1003
0010
0100
0001
,
0020
1000
0100
0001
1030
0001
0100
0001
,
0020
0100
0001
1000
0130
0001
1000
0100
,
0020
0001
0100
1000
0031
0100
0001
0010
,
2100
0010
0100
0001
0010
0001
0100
0010
3001
0100
0010
0100
1000
0010
0100
0001
,
0020
0200
2030
0302
,
3200
0023
0302
2030
,
0023
3200
0032
2300
,
0023
3200
2030
0320
,
3002
0230
0023
2300
,
0032
3200
0023
2300
,
0032
3020
0203
2030
,
0302
3020
2003
0230
,
3002
0320
2003
0032
,
3200
0023
0302
0230
,
2003
0320
3200
0032
,
2300
0023
3200
0032
,
2300
0203
3020
0302
,
0230
2003
0302
3020
,
0203
2030
0302
0010
,
3103
0010
1000
0001
,
1100
0010
0101
1000
0101
0010
0101
0010
,
1100
0001
1100
0010
1100
0001
1100
0010
,
1001
0100
1001
0010
1001
0100
1001
0010
,
1001
0100
1001
0010
0101
1000
0101
1000
,
0110
0001
0110
1000
0110
0001
1100
0010
,
1100
0001
1100
0010
1100
0001
1100
0010
,
1100
0001
1100
0010
0101
1000
0101
0010
,
1100
0001
0110
1000
0101
0010
1001
0100
,
0011
1000
0101
1000
0101
0010
0101
0010
,
1100
0001
1100
0010
1100
0001
1100
0010
,
1001
0100
1001
0010
1001
0100
1001
0010
,
0101
1000
0101
0010
0101
1000
0101
1000
,
0110
0001
0110
1000
0110
0001
0110
1000
,
0011
0100
0011
1000
0011
0100
0011
1000
,
0101
0010
0101
1000
0101
0010
0101
1000
,
0101
0010
0001
0100
1010
0001
0010
0100
0011
1000
0100
0010
0101
1000
0100
0010
,
1001
0000
0101
0010
1100
0000
0001
0000
,
0100
0000
1000
0010
0001
0000
0100
0000
,
1000
0000
0100
0010
0001
0000
0100
0000
,
1000
0000
0100
0010
1000
0000
0001
0000
,
0100
0000
0010
1000
0100
0000
0001
0000
,
0100
0000
1000
0010
0001
0000
0100
0000
,
1000
0010
0001
0010
0100
1000
0010
0100
0001
0010
1000
0100
0010
0100
0001
0010
,
1000
0100
0010
1000
0100
0001
0010
0100
1000
0010
0100
0010
0001
0100
0010
1000
,
0100
0000
1000
0010
0100
0000
0001
0000
,
1000
0000
0010
0001
0100
0000
1000
0000
,
0100
0000
0010
1000
0100
0000
0001
0000
,
0010
0000
0100
0010
1000
0000
0001
0000
,
0110
1000
0011
1000
0101
0010
1001
0100
,
0010
1000
0110
0001
1100
0010
0101
1000
,
0011
1000
0110
0001
1010
0100
1001
0010
,
1100
0001
1010
0100
0011
0100
1010
0100
,
1001
0010
0101
1000
0110
0001
1010
0001
,
0110
1000
0101
0010
1100
0010
0101
1000
,
0110
0001
1010
0100
0011
0100
1001
0010
,
1001
0100
0011
1000
0110
1000
0011
0100
,
1001
0010
1100
0001
0110
1000
0101
1000
,
0110
0001
1010
0100
1001
0010
1100
0010
,
1001
0010
1000
0100
0011
1000
0100
0010
0101
1000
0010
0100
1010
0001
0100
1000
,
0101
0010
0100
1000
0110
0001
1000
0010
1100
0010
0001
0010
0101
1000
0010
0100
,
2002
0000
0000
0000
,
0000
0000
0000
0000
,
0000
0000
0000
0000
,
3003
0000
0000
0000
;
